<?xml version="1.0" standalone="no"?>
<!DOCTYPE svg PUBLIC "-//W3C//DTD SVG 1.1//EN" "http://www.w3.org/Graphics/SVG/1.1/DTD/svg11.dtd" >
<svg xmlns="http://www.w3.org/2000/svg">
<metadata>Generated by IcoMoon</metadata>
<defs>
<font id="tripla-bw3-icon" horiz-adv-x="1024">
<font-face units-per-em="1024" ascent="960" descent="-64" />
<missing-glyph horiz-adv-x="1024" />
<glyph unicode="&#x20;" horiz-adv-x="512" d="" />
<glyph unicode="&#xe900;" glyph-name="credit-card" d="M170.667 106.667c-23.467 0-43.555 8.354-60.267 25.067s-25.067 36.8-25.067 60.267v512c0 23.467 8.355 43.555 25.067 60.267s36.8 25.067 60.267 25.067h682.667c23.467 0 43.554-8.355 60.267-25.067s25.067-36.8 25.067-60.267v-512c0-23.467-8.354-43.554-25.067-60.267s-36.8-25.067-60.267-25.067h-682.667zM170.667 448h682.667v170.667h-682.667v-170.667z" />
<glyph unicode="&#xe901;" glyph-name="wallet" d="M256 106.667c-46.933 0-87.111 16.713-120.533 50.133s-50.133 73.6-50.133 120.533v341.333c0 46.933 16.711 87.111 50.133 120.533s73.6 50.133 120.533 50.133h512c46.933 0 87.113-16.711 120.533-50.133s50.133-73.6 50.133-120.533v-341.333c0-46.933-16.713-87.113-50.133-120.533s-73.6-50.133-120.533-50.133h-512zM256 618.667h512c15.646 0 30.579-1.778 44.8-5.333s27.733-9.245 40.533-17.067v22.4c0 23.467-8.354 43.555-25.067 60.267s-36.8 25.067-60.267 25.067h-512c-23.467 0-43.555-8.355-60.267-25.067s-25.067-36.8-25.067-60.267v-22.4c12.8 7.822 26.311 13.511 40.533 17.067s29.155 5.333 44.8 5.333zM177.067 480l474.667-115.2c6.4-1.421 12.8-1.421 19.2 0s12.446 4.267 18.133 8.533l148.267 123.733c-7.821 10.667-17.779 19.379-29.867 26.133s-25.246 10.133-39.467 10.133h-512c-18.489 0-34.667-4.8-48.533-14.4s-24-22.579-30.4-38.933z" />
<glyph unicode="&#xe902;" glyph-name="add" d="M810.667 405.333h-256v-256h-85.333v256h-256v85.333h256v256h85.333v-256h256v-85.333z" />
<glyph unicode="&#xe903;" glyph-name="arrow-left" d="M597.333 192l-256 256 256 256 59.733-59.733-196.267-196.267 196.267-196.267-59.733-59.733z" />
<glyph unicode="&#xe904;" glyph-name="arrow-right" d="M401.067 192l-59.733 59.733 196.267 196.267-196.267 196.267 59.733 59.733 256-256-256-256z" />
<glyph unicode="&#xe905;" glyph-name="bath" d="M298.667 576c-23.467 0-43.549 8.363-60.245 25.088-16.725 16.697-25.088 36.779-25.088 60.245s8.363 43.549 25.088 60.245c16.697 16.725 36.779 25.088 60.245 25.088s43.549-8.363 60.245-25.088c16.725-16.697 25.088-36.779 25.088-60.245s-8.363-43.549-25.088-60.245c-16.697-16.725-36.779-25.088-60.245-25.088zM213.333 21.333c-12.089 0-22.229 4.096-30.421 12.288-8.163 8.162-12.245 18.291-12.245 30.379-23.467 0-43.549 8.35-60.245 25.045-16.725 16.725-25.088 36.821-25.088 60.288v256h128v32c0 27.021 9.245 49.779 27.733 68.267s41.245 27.733 68.267 27.733c14.222 0 27.378-2.846 39.467-8.533s23.111-13.513 33.067-23.467l59.733-66.133c5.687-5.687 11.209-11.021 16.555-16 5.321-4.979 11.179-9.6 17.579-13.867h292.267v347.733c0 9.955-3.554 18.489-10.667 25.6s-15.646 10.667-25.6 10.667c-4.267 0-8.35-0.882-12.245-2.645-3.925-1.792-7.667-4.466-11.221-8.021l-53.333-53.333c3.554-12.089 4.267-24.007 2.133-35.755-2.133-11.719-6.4-22.557-12.8-32.512l-117.333 119.467c9.954 6.4 20.621 10.496 32 12.288 11.379 1.763 22.754 0.512 34.133-3.755l53.333 53.333c11.379 11.378 24.35 20.267 38.912 26.667 14.592 6.4 30.067 9.6 46.421 9.6 34.133 0 62.933-11.733 86.4-35.2s35.2-52.267 35.2-86.4v-347.733h85.333v-256c0-23.467-8.35-43.563-25.045-60.288-16.725-16.695-36.821-25.045-60.288-25.045 0-12.087-4.096-22.217-12.288-30.379-8.162-8.192-18.291-12.288-30.379-12.288h-597.333z" />
<glyph unicode="&#xe906;" glyph-name="bed" d="M42.667 106.667v640h85.333v-426.667h341.333v341.333h341.333c46.933 0 87.113-16.711 120.533-50.133s50.133-73.6 50.133-120.533v-384h-85.333v128h-768v-128h-85.333zM298.667 362.667c-35.555 0-65.778 12.446-90.667 37.333s-37.333 55.113-37.333 90.667c0 35.554 12.445 65.778 37.333 90.667s55.111 37.333 90.667 37.333c35.555 0 65.778-12.445 90.667-37.333s37.333-55.113 37.333-90.667c0-35.554-12.445-65.779-37.333-90.667s-55.111-37.333-90.667-37.333z" />
<glyph unicode="&#xe907;" glyph-name="unlocked" d="M310.875 720.562c0 59.023 20.807 109.341 62.421 150.955 41.586 41.586 91.89 62.379 150.911 62.379 59.025 0 109.342-20.793 150.955-62.379 41.587-41.614 62.379-91.932 62.379-150.955v-85.333h42.667c23.467 0 43.563-8.348 60.288-25.045 16.7-16.725 25.045-36.821 25.045-60.288v-426.666c0-23.467-8.346-43.563-25.045-60.288-16.725-16.695-36.821-25.045-60.288-25.045h-511.999c-23.467 0-43.548 8.35-60.245 25.045-16.725 16.725-25.088 36.821-25.088 60.288v426.666c0 23.467 8.363 43.563 25.088 60.288 16.697 16.697 36.779 25.045 60.245 25.045h383.999v85.333c0 35.556-12.442 65.778-37.333 90.667-24.887 24.889-55.108 37.333-90.667 37.333-35.554 0-65.775-12.444-90.667-37.333-24.887-24.889-37.332-55.111-37.332-90.667h-85.333zM524.207 421.897c-23.467 0-43.546-8.35-60.245-25.045-16.725-16.725-25.088-36.821-25.088-60.288s8.363-43.563 25.088-60.288c16.7-16.7 36.779-25.045 60.245-25.045s43.563 8.346 60.288 25.045c16.7 16.725 25.045 36.821 25.045 60.288s-8.346 43.563-25.045 60.288c-16.725 16.695-36.821 25.045-60.288 25.045z" />
<glyph unicode="&#xe908;" glyph-name="calender" d="M366.625 271.501c-29.867 0-55.111 10.308-75.733 30.933-20.622 20.621-30.933 45.867-30.933 75.733s10.311 55.108 30.933 75.733c20.623 20.621 45.867 30.933 75.733 30.933s55.111-10.313 75.735-30.933c20.621-20.625 30.933-45.867 30.933-75.733s-10.313-55.113-30.933-75.733c-20.623-20.625-45.868-30.933-75.735-30.933zM195.958 36.834c-23.467 0-43.563 8.346-60.288 25.045-16.697 16.725-25.045 36.821-25.045 60.288v597.332c0 23.467 8.349 43.549 25.045 60.245 16.725 16.725 36.821 25.088 60.288 25.088h42.667v85.333h85.333v-85.333h341.335v85.333h85.333v-85.333h42.667c23.467 0 43.563-8.363 60.288-25.088 16.695-16.697 25.045-36.779 25.045-60.245v-597.332c0-23.467-8.35-43.563-25.045-60.288-16.725-16.7-36.821-25.045-60.288-25.045h-597.335zM195.958 122.167h597.335v426.666h-597.335v-426.666z" />
<glyph unicode="&#xe909;" glyph-name="cancel" d="M358.4 234.667l153.6 153.6 153.6-153.6 59.733 59.733-153.6 153.6 153.6 153.6-59.733 59.733-153.6-153.6-153.6 153.6-59.733-59.733 153.6-153.6-153.6-153.6 59.733-59.733zM512 21.333c-59.021 0-114.489 11.2-166.4 33.6s-97.067 52.8-135.467 91.2c-38.4 38.4-68.8 83.554-91.2 135.467s-33.6 107.379-33.6 166.4c0 59.021 11.2 114.489 33.6 166.4s52.8 97.067 91.2 135.467c38.4 38.4 83.555 68.8 135.467 91.2s107.379 33.6 166.4 33.6c59.021 0 114.487-11.2 166.4-33.6s97.067-52.8 135.467-91.2c38.4-38.4 68.8-83.555 91.2-135.467s33.6-107.379 33.6-166.4c0-59.021-11.2-114.487-33.6-166.4s-52.8-97.067-91.2-135.467c-38.4-38.4-83.554-68.8-135.467-91.2s-107.379-33.6-166.4-33.6z" />
<glyph unicode="&#xe90a;" glyph-name="info-round" d="M469.333 661.333h85.333v-85.333h-85.333zM469.333 490.667h85.333v-256h-85.333zM512 874.667c-235.52 0-426.667-191.147-426.667-426.667s191.147-426.667 426.667-426.667 426.667 191.147 426.667 426.667-191.147 426.667-426.667 426.667zM512 106.667c-188.16 0-341.333 153.173-341.333 341.333s153.173 341.333 341.333 341.333 341.333-153.173 341.333-341.333-153.173-341.333-341.333-341.333z" />
<glyph unicode="&#xe90b;" glyph-name="check-circle" d="M452.267 251.733l300.8 300.8-59.733 59.733-241.067-241.067-121.6 121.6-59.733-59.733 181.333-181.333zM512 21.333c-59.021 0-114.489 11.209-166.4 33.621-51.911 22.387-97.067 52.779-135.467 91.179s-68.793 83.554-91.179 135.467c-22.414 51.913-33.621 107.379-33.621 166.4s11.207 114.489 33.621 166.4c22.386 51.911 52.779 97.067 91.179 135.467s83.555 68.807 135.467 91.221c51.911 22.386 107.379 33.579 166.4 33.579s114.487-11.193 166.4-33.579c51.913-22.414 97.067-52.821 135.467-91.221s68.791-83.555 91.179-135.467c22.413-51.911 33.621-107.379 33.621-166.4s-11.209-114.487-33.621-166.4c-22.387-51.913-52.779-97.067-91.179-135.467s-83.554-68.791-135.467-91.179c-51.913-22.413-107.379-33.621-166.4-33.621z" />
<glyph unicode="&#xe90c;" glyph-name="check" d="M391.471 184.913l-243.2 243.2 60.8 60.8 182.4-182.4 391.467 391.466 60.8-60.8-452.267-452.266z" />
<glyph unicode="&#xe90d;" glyph-name="copy" d="M384 192c-23.467 0-43.549 8.35-60.245 25.045-16.725 16.725-25.088 36.821-25.088 60.288v512c0 23.467 8.363 43.563 25.088 60.288 16.697 16.697 36.779 25.045 60.245 25.045h384c23.467 0 43.563-8.349 60.288-25.045 16.695-16.725 25.045-36.821 25.045-60.288v-512c0-23.467-8.35-43.563-25.045-60.288-16.725-16.695-36.821-25.045-60.288-25.045h-384zM213.333 21.333c-23.467 0-43.563 8.35-60.288 25.045-16.697 16.725-25.045 36.821-25.045 60.288v597.333h85.333v-597.333h469.333v-85.333h-469.333z" />
<glyph unicode="&#xe90e;" glyph-name="copied" d="M547.84 343.040l289.28 289.28-71.68 74.24-217.6-217.6-110.080 107.52-71.68-71.68 181.76-181.76zM307.2 140.8c-28.16 0-52.266 10.025-72.32 30.080s-30.080 44.16-30.080 72.32v614.4c0 28.16 10.026 52.267 30.080 72.32s44.16 30.080 72.32 30.080h614.4c28.16 0 52.265-10.027 72.32-30.080s30.080-44.16 30.080-72.32v-614.4c0-28.16-10.025-52.265-30.080-72.32s-44.16-30.080-72.32-30.080h-614.4zM102.4-64c-28.16 0-52.267 10.025-72.32 30.080s-30.080 44.16-30.080 72.32v716.8h102.4v-716.8h716.8v-102.4h-716.8z" />
<glyph unicode="&#xe90f;" glyph-name="country" d="M213.333 64v725.333h384l17.067-85.333h238.933v-426.667h-298.667l-17.067 85.333h-238.933v-298.667h-85.333z" />
<glyph unicode="&#xe910;" glyph-name="coupon" d="M938.667 533.333v170.667c0 47.36-38.4 85.333-85.333 85.333h-682.667c-46.933 0-84.907-37.973-84.907-85.333v-170.667c46.933 0 84.907-38.4 84.907-85.333s-37.973-85.333-85.333-85.333v-170.667c0-46.933 38.4-85.333 85.333-85.333h682.667c46.933 0 85.333 38.4 85.333 85.333v170.667c-46.933 0-85.333 38.4-85.333 85.333s38.4 85.333 85.333 85.333zM554.667 213.333h-85.333v85.333h85.333v-85.333zM554.667 405.333h-85.333v85.333h85.333v-85.333zM554.667 597.333h-85.333v85.333h85.333v-85.333z" />
<glyph unicode="&#xe911;" glyph-name="crib" d="M500.292 107.251c14.221 0 28.446 0.879 42.667 2.645 14.221 1.792 28.446 4.463 42.667 8.021v160h-170.667v-160c14.221-3.558 28.446-6.229 42.667-8.021 14.221-1.766 28.446-2.645 42.667-2.645zM500.292 21.918c-56.887 0-111.29 10.837-163.2 32.512-51.911 21.7-98.133 52.463-138.667 92.288l60.8 60.8c10.667-10.667 21.873-20.437 33.621-29.312 11.719-8.905 23.979-17.267 36.779-25.088v124.8h-85.333c-23.467 0-43.549 8.363-60.245 25.088-16.725 16.695-25.088 36.779-25.088 60.245v255.999c0 46.933 16.711 87.111 50.133 120.533s73.6 50.133 120.533 50.133h170.667v-213.333h256c23.467 0 43.563-8.348 60.288-25.045 16.695-16.725 25.045-36.82 25.045-60.287v-128c0-23.467-8.35-43.55-25.045-60.245-16.725-16.725-36.821-25.088-60.288-25.088h-85.333v-124.8c12.8 7.821 25.075 16.183 36.821 25.088 11.721 8.875 22.912 18.645 33.579 29.312l60.8-60.8c-40.533-39.825-86.754-70.588-138.667-92.288-51.913-21.675-106.313-32.512-163.2-32.512z" />
<glyph unicode="&#xe912;" glyph-name="currency-yen" d="M469.333 64v170.667h-213.333v85.333h213.333v85.333h-213.333v85.333h173.867l-216.533 341.333h101.333l197.333-311.467 197.333 311.467h101.333l-216.533-341.333h173.867v-85.333h-213.333v-85.333h213.333v-85.333h-213.333v-170.667h-85.333z" />
<glyph unicode="&#xe913;" glyph-name="custom" d="M810.667 576l-53.333 117.333-117.333 53.333 117.333 53.333 53.333 117.333 53.333-117.333 117.333-53.333-117.333-53.333-53.333-117.333zM810.667-21.333l-53.333 117.333-117.333 53.333 117.333 53.333 53.333 117.333 53.333-117.333 117.333-53.333-117.333-53.333-53.333-117.333zM384 106.667l-106.667 234.667-234.667 106.667 234.667 106.667 106.667 234.667 106.667-234.667 234.667-106.667-234.667-106.667-106.667-234.667zM384 313.6l42.667 91.733 91.733 42.667-91.733 42.667-42.667 91.733-42.667-91.733-91.733-42.667 91.733-42.667 42.667-91.733z" />
<glyph unicode="&#xe914;" glyph-name="delete" d="M256 149.333c0-46.933 38.4-85.333 85.333-85.333h341.333c46.933 0 85.333 38.4 85.333 85.333v512h-512v-512zM810.667 789.333h-149.333l-42.667 42.667h-213.333l-42.667-42.667h-149.333v-85.333h597.333v85.333z" />
<glyph unicode="&#xe915;" glyph-name="error" d="M517.585 5.623c-59.025 0-114.49 11.209-166.402 33.621-51.911 22.387-97.067 52.779-135.467 91.179s-68.793 83.558-91.179 135.467c-22.414 51.913-33.621 107.379-33.621 166.4 0 59.025 11.207 114.49 33.621 166.402 22.386 51.911 52.779 97.067 91.179 135.467s83.555 68.807 135.467 91.221c51.911 22.385 107.377 33.579 166.402 33.579 59.021 0 114.487-11.193 166.4-33.579 51.908-22.415 97.067-52.821 135.467-91.221s68.791-83.556 91.179-135.467c22.413-51.911 33.621-107.377 33.621-166.402 0-59.021-11.209-114.487-33.621-166.4-22.387-51.908-52.779-97.067-91.179-135.467s-83.558-68.791-135.467-91.179c-51.913-22.413-107.379-33.621-166.4-33.621zM474.918 389.623h85.333v256.002h-85.333v-256.002zM517.585 218.957c12.087 0 22.229 4.096 30.421 12.288 8.162 8.166 12.245 18.291 12.245 30.379 0 12.092-4.083 22.229-12.245 30.421-8.192 8.166-18.334 12.245-30.421 12.245-12.092 0-22.217-4.079-30.379-12.245-8.192-8.192-12.288-18.33-12.288-30.421 0-12.087 4.096-22.212 12.288-30.379 8.162-8.192 18.287-12.288 30.379-12.288z" />
<glyph unicode="&#xe916;" glyph-name="arrow-up" d="M318.837 283.494l-59.733 59.733 256.002 256.001 256-256.001-59.733-59.733-196.267 196.267-196.269-196.267z" />
<glyph unicode="&#xe917;" glyph-name="arrow-down" d="M515.106 283.494l-256.002 256.001 59.733 59.733 196.269-196.268 196.267 196.268 59.733-59.733-256-256.001z" />
<glyph unicode="&#xe918;" glyph-name="facility" d="M85.333 64v768h426.667v-170.667h426.667v-597.333h-853.333zM170.667 149.333h85.333v85.333h-85.333v-85.333zM170.667 320h85.333v85.333h-85.333v-85.333zM170.667 490.667h85.333v85.333h-85.333v-85.333zM170.667 661.333h85.333v85.333h-85.333v-85.333zM341.333 149.333h85.333v85.333h-85.333v-85.333zM341.333 320h85.333v85.333h-85.333v-85.333zM341.333 490.667h85.333v85.333h-85.333v-85.333zM341.333 661.333h85.333v85.333h-85.333v-85.333zM512 149.333h341.333v426.667h-341.333v-85.333h85.333v-85.333h-85.333v-85.333h85.333v-85.333h-85.333v-85.333zM682.667 405.333v85.333h85.333v-85.333h-85.333zM682.667 234.667v85.333h85.333v-85.333h-85.333z" />
<glyph unicode="&#xe919;" glyph-name="filter" d="M130.708 161.126v85.333h256v-85.333h-256zM130.708 673.125v85.333h426.668v-85.333h-426.668zM472.043 75.793v256h85.333v-85.333h341.333v-85.333h-341.333v-85.333h-85.333zM301.375 331.793v85.333h-170.667v85.333h170.667v85.332h85.333v-255.999h-85.333zM472.043 417.126v85.333h426.667v-85.333h-426.667zM642.709 587.792v256h85.333v-85.333h170.667v-85.333h-170.667v-85.333h-85.333z" />
<glyph unicode="&#xe91a;" glyph-name="flight" d="M896 277.333v85.333l-341.333 213.333v234.667c0 35.413-28.587 64-64 64s-64-28.587-64-64v-234.667l-341.333-213.333v-85.333l341.333 106.667v-234.667l-85.333-64v-64l149.333 42.667 149.333-42.667v64l-85.333 64v234.667l341.333-106.667z" />
<glyph unicode="&#xe91b;" glyph-name="building" d="M116.292 64.585v597.332h170.667v170.667h426.667v-341.332h170.667v-426.667h-341.333v170.667h-85.333v-170.667h-341.334zM201.625 149.918h85.333v85.333h-85.333v-85.333zM201.625 320.585h85.333v85.333h-85.333v-85.333zM201.625 491.251h85.333v85.332h-85.333v-85.332zM372.292 320.585h85.334v85.333h-85.334v-85.333zM372.292 491.251h85.334v85.332h-85.334v-85.332zM372.292 661.917h85.334v85.333h-85.334v-85.333zM542.959 320.585h85.333v85.333h-85.333v-85.333zM542.959 491.251h85.333v85.332h-85.333v-85.332zM542.959 661.917h85.333v85.333h-85.333v-85.333zM713.626 149.918h85.333v85.333h-85.333v-85.333zM713.626 320.585h85.333v85.333h-85.333v-85.333z" />
<glyph unicode="&#xe91c;" glyph-name="date" d="M467.2 177.067l-151.467 151.467 61.867 61.867 89.6-89.6 179.2 179.2 61.867-61.867-241.067-241.067zM213.333 21.333c-23.467 0-43.555 8.354-60.267 25.067s-25.067 36.8-25.067 60.267v597.333c0 23.467 8.355 43.555 25.067 60.267s36.8 25.067 60.267 25.067h42.667v85.333h85.333v-85.333h341.333v85.333h85.333v-85.333h42.667c23.467 0 43.554-8.355 60.267-25.067s25.067-36.8 25.067-60.267v-597.333c0-23.467-8.354-43.554-25.067-60.267s-36.8-25.067-60.267-25.067h-597.333zM213.333 106.667h597.333v426.667h-597.333v-426.667zM213.333 618.667h597.333v85.333h-597.333v-85.333z" />
<glyph unicode="&#xe91d;" glyph-name="info" d="M469.333 234.667h85.333v256h-85.333v-256zM512 576c12.087 0 22.229 4.096 30.421 12.288 8.162 8.163 12.245 18.29 12.245 30.379s-4.083 22.229-12.245 30.421c-8.192 8.163-18.334 12.245-30.421 12.245s-22.217-4.082-30.379-12.245c-8.192-8.192-12.288-18.333-12.288-30.421s4.096-22.215 12.288-30.379c8.162-8.192 18.291-12.288 30.379-12.288zM512 21.333c-59.021 0-114.489 11.209-166.4 33.621-51.911 22.387-97.067 52.779-135.467 91.179s-68.793 83.554-91.179 135.467c-22.414 51.913-33.621 107.379-33.621 166.4s11.207 114.489 33.621 166.4c22.386 51.911 52.779 97.067 91.179 135.467s83.555 68.807 135.467 91.221c51.911 22.386 107.379 33.579 166.4 33.579s114.487-11.193 166.4-33.579c51.913-22.414 97.067-52.821 135.467-91.221s68.791-83.555 91.179-135.467c22.413-51.911 33.621-107.379 33.621-166.4s-11.209-114.487-33.621-166.4c-22.387-51.913-52.779-97.067-91.179-135.467s-83.554-68.791-135.467-91.179c-51.913-22.413-107.379-33.621-166.4-33.621z" />
<glyph unicode="&#xe91e;" glyph-name="language" d="M512 21.333c-58.313 0-113.422 11.209-165.333 33.621-51.911 22.387-97.237 52.962-135.979 91.733-38.77 38.741-69.347 84.066-91.733 135.979-22.414 51.913-33.621 107.021-33.621 165.333 0 59.021 11.207 114.304 33.621 165.845 22.386 51.57 52.963 96.725 91.733 135.467 38.741 38.77 84.067 69.362 135.979 91.776 51.911 22.386 107.021 33.579 165.333 33.579 59.021 0 114.304-11.193 165.845-33.579 51.571-22.414 96.725-53.006 135.467-91.776 38.771-38.741 69.346-83.897 91.733-135.467 22.413-51.541 33.621-106.825 33.621-165.845 0-58.313-11.209-113.421-33.621-165.333-22.387-51.913-52.962-97.237-91.733-135.979-38.741-38.771-83.895-69.346-135.467-91.733-51.541-22.413-106.825-33.621-165.845-33.621zM680.533 618.667h125.867c-20.621 35.555-46.409 66.489-77.355 92.8-30.921 26.311-66.291 45.867-106.112 58.667 12.8-23.467 24.009-47.815 33.621-73.045 9.587-25.259 17.579-51.399 23.979-78.421zM430.933 618.667h162.133c-8.533 31.289-19.554 60.8-33.067 88.533s-29.513 54.4-48 80c-18.487-25.6-34.487-52.267-48-80s-24.533-57.245-33.067-88.533zM181.333 362.667h145.067c-2.133 14.221-3.741 28.275-4.821 42.155-1.053 13.854-1.579 28.245-1.579 43.179s0.526 29.325 1.579 43.179c1.081 13.879 2.688 27.934 4.821 42.155h-145.067c-3.555-14.221-6.229-28.275-8.021-42.155-1.763-13.854-2.645-28.245-2.645-43.179s0.882-29.325 2.645-43.179c1.792-13.879 4.466-27.934 8.021-42.155zM401.067 125.867c-12.8 23.467-23.993 47.829-33.579 73.088-9.614 25.229-17.621 51.358-24.021 78.379h-125.867c20.622-35.554 46.393-66.487 77.312-92.8 30.947-26.313 66.333-45.867 106.155-58.667zM217.6 618.667h125.867c6.4 27.022 14.407 53.163 24.021 78.421 9.586 25.23 20.779 49.579 33.579 73.045-39.822-12.8-75.207-32.355-106.155-58.667-30.919-26.311-56.69-57.245-77.312-92.8zM512 108.8c18.487 25.6 34.487 52.267 48 80s24.533 57.246 33.067 88.533h-162.133c8.533-31.287 19.554-60.8 33.067-88.533s29.513-54.4 48-80zM411.733 362.667h200.533c2.133 14.221 3.742 28.275 4.821 42.155 1.054 13.854 1.579 28.245 1.579 43.179s-0.525 29.325-1.579 43.179c-1.079 13.879-2.688 27.934-4.821 42.155h-200.533c-2.133-14.221-3.726-28.275-4.779-42.155-1.081-13.854-1.621-28.245-1.621-43.179s0.541-29.325 1.621-43.179c1.053-13.879 2.645-27.934 4.779-42.155zM622.933 125.867c39.821 12.8 75.191 32.354 106.112 58.667 30.946 26.313 56.734 57.246 77.355 92.8h-125.867c-6.4-27.021-14.391-53.15-23.979-78.379-9.613-25.259-20.821-49.621-33.621-73.088zM697.6 362.667h145.067c3.554 14.221 6.229 28.275 8.021 42.155 1.762 13.854 2.645 28.245 2.645 43.179s-0.883 29.325-2.645 43.179c-1.792 13.879-4.467 27.934-8.021 42.155h-145.067c2.133-14.221 3.725-28.275 4.779-42.155 1.079-13.854 1.621-28.245 1.621-43.179s-0.542-29.325-1.621-43.179c-1.054-13.879-2.645-27.934-4.779-42.155z" />
<glyph unicode="&#xe91f;" glyph-name="location" d="M505.084 453.291c23.467 0 43.563 8.363 60.288 25.088 16.695 16.7 25.045 36.779 25.045 60.246s-8.35 43.563-25.045 60.288c-16.725 16.697-36.821 25.045-60.288 25.045s-43.55-8.348-60.245-25.045c-16.725-16.725-25.088-36.821-25.088-60.288s8.363-43.546 25.088-60.246c16.695-16.725 36.779-25.088 60.245-25.088zM505.084 26.624c-114.489 97.425-199.993 187.921-256.512 271.488-56.547 83.541-84.821 160.87-84.821 231.979 0 106.668 34.318 191.645 102.955 254.934 68.608 63.289 148.067 94.933 238.379 94.933s169.771-31.644 238.379-94.933c68.638-63.289 102.955-148.267 102.955-254.934 0-71.108-28.258-148.437-84.779-231.979-56.546-83.567-142.067-174.063-256.555-271.488z" />
<glyph unicode="&#xe920;" glyph-name="discount" d="M554.667 213.333l149.333 149.333c7.821 7.821 14.050 17.067 18.688 27.733 4.608 10.667 6.912 22.046 6.912 34.133 0 24.179-8.533 44.8-25.6 61.867s-37.687 25.6-61.867 25.6c-13.513 0-26.837-3.913-39.979-11.733-13.171-7.821-29.001-20.979-47.488-39.467-21.333 19.913-38.046 33.421-50.133 40.533s-24.533 10.667-37.333 10.667c-24.179 0-44.8-8.533-61.867-25.6s-25.6-37.687-25.6-61.867c0-12.087 2.304-23.467 6.912-34.133 4.637-10.667 10.866-19.913 18.688-27.733l149.333-149.333zM548.267 21.333c-12.087 0-23.467 2.317-34.133 6.955-10.667 4.608-19.913 10.825-27.733 18.645l-375.467 375.467c-7.822 7.821-14.037 17.067-18.645 27.733-4.637 10.667-6.955 22.046-6.955 34.133v305.067c0 23.467 8.363 43.563 25.088 60.288 16.697 16.697 36.779 25.045 60.245 25.045h305.067c12.087 0 23.467-2.304 34.133-6.912 10.667-4.637 19.913-10.866 27.733-18.688l375.467-376.533c16.354-16.354 24.533-36.437 24.533-60.245 0-23.838-8.179-43.934-24.533-60.288l-305.067-305.067c-7.821-7.821-16.883-14.037-27.179-18.645-10.325-4.638-21.175-6.955-32.555-6.955zM277.333 618.667c17.778 0 32.882 6.229 45.312 18.688 12.459 12.43 18.688 27.534 18.688 45.312s-6.229 32.882-18.688 45.312c-12.43 12.459-27.534 18.688-45.312 18.688s-32.882-6.229-45.312-18.688c-12.459-12.43-18.688-27.534-18.688-45.312s6.229-32.882 18.688-45.312c12.43-12.459 27.534-18.688 45.312-18.688z" />
<glyph unicode="&#xe921;" glyph-name="menu-open" d="M128 192v64h554.667v-64h-554.667zM851.2 247.467l-201.6 201.6 200.533 200.533 45.867-45.867-154.667-154.667 155.733-155.733-45.867-45.867zM128 418.133v64h426.667v-64h-426.667zM128 640v64h554.667v-64h-554.667z" />
<glyph unicode="&#xe922;" glyph-name="menu" d="M128 192v64h768v-64h-768zM128 416v64h768v-64h-768zM128 640v64h768v-64h-768z" />
<glyph unicode="&#xe923;" glyph-name="minimize" d="M256 490.667h512v-85.333h-512v85.333z" />
<glyph unicode="&#xe924;" glyph-name="news" d="M810.667 416c-9.246 0-16.887 3.021-22.933 9.067-6.046 6.042-9.067 13.687-9.067 22.933 0 9.242 3.021 16.887 9.067 22.933 6.046 6.042 13.687 9.067 22.933 9.067h96c9.246 0 16.887-3.025 22.933-9.067 6.046-6.046 9.067-13.692 9.067-22.933 0-9.246-3.021-16.892-9.067-22.933-6.046-6.046-13.687-9.067-22.933-9.067h-96zM806.4 125.867l-77.867 57.6c-7.113 5.687-11.379 12.8-12.8 21.333s0.713 16.354 6.4 23.467c5.687 7.108 12.8 11.375 21.333 12.8 8.533 1.421 16.354-0.713 23.467-6.4l77.867-57.6c7.113-5.692 11.379-12.8 12.8-21.333s-0.713-16.358-6.4-23.467c-5.687-7.113-12.8-11.379-21.333-12.8-8.533-1.425-16.354 0.708-23.467 6.4zM770.133 662.398c-7.113-5.689-14.933-7.822-23.467-6.4s-15.646 5.689-21.333 12.8c-5.687 7.111-7.821 14.933-6.4 23.467s5.687 15.645 12.8 21.333l74.667 56.533c7.113 5.689 14.933 7.822 23.467 6.4s15.646-5.689 21.333-12.8c5.687-7.111 7.821-14.933 6.4-23.467s-5.687-15.645-12.8-21.333l-74.667-56.533zM224 149.333v170.667h-74.667c-17.778 0-32.889 6.221-45.333 18.667-12.445 12.442-18.667 27.554-18.667 45.333v128c0 17.775 6.222 32.887 18.667 45.332s27.555 18.667 45.333 18.667h192l165.333 99.2c10.667 6.4 21.333 6.4 32 0s16-15.645 16-27.733v-398.932c0-12.092-5.333-21.333-16-27.733s-21.333-6.4-32 0l-165.333 99.2h-53.333v-170.667h-64zM597.333 305.067v285.865c19.2-17.067 34.667-37.867 46.4-62.398 11.733-24.533 17.6-51.379 17.6-80.533 0-29.158-5.867-56-17.6-80.533s-27.2-45.333-46.4-62.4z" />
<glyph unicode="&#xe925;" glyph-name="out-date" d="M413.867 162.133l-59.733 59.733 98.133 98.133-98.133 98.133 59.733 59.733 98.133-98.133 98.133 98.133 59.733-59.733-98.133-98.133 98.133-98.133-59.733-59.733-98.133 98.133-98.133-98.133zM213.333 21.333c-23.467 0-43.555 8.354-60.267 25.067s-25.067 36.8-25.067 60.267v597.333c0 23.467 8.355 43.555 25.067 60.267s36.8 25.067 60.267 25.067h42.667v85.333h85.333v-85.333h341.333v85.333h85.333v-85.333h42.667c23.467 0 43.554-8.355 60.267-25.067s25.067-36.8 25.067-60.267v-597.333c0-23.467-8.354-43.554-25.067-60.267s-36.8-25.067-60.267-25.067h-597.333zM213.333 106.667h597.333v426.667h-597.333v-426.667zM213.333 618.667h597.333v85.333h-597.333v-85.333z" />
<glyph unicode="&#xe926;" glyph-name="password-hide" d="M844.8-4.258l-179.2 177.067c-24.887-7.821-49.95-13.696-75.179-17.621-25.259-3.895-51.401-5.845-78.421-5.845-107.378 0-203.022 29.683-286.933 89.045-83.911 59.392-144.711 136.375-182.4 230.955 14.933 37.687 33.778 72.718 56.533 105.088 22.755 32.341 48.711 61.312 77.867 86.912l-117.333 119.467 59.733 59.733 785.067-785.067-59.733-59.733zM512 277.342c7.821 0 15.104 0.354 21.845 1.067 6.771 0.713 14.067 2.133 21.888 4.267l-230.4 230.4c-2.133-7.821-3.555-15.117-4.267-21.888-0.711-6.741-1.067-14.025-1.067-21.845 0-53.333 18.659-98.675 55.979-136.021 37.347-37.321 82.688-55.979 136.021-55.979zM823.467 258.142l-135.467 134.4c4.979 12.087 8.887 24.35 11.733 36.779 2.846 12.459 4.267 25.801 4.267 40.021 0 53.333-18.658 98.673-55.979 136.021-37.346 37.319-82.688 55.979-136.021 55.979-14.221 0-27.563-1.423-40.021-4.267-12.429-2.845-24.691-7.111-36.779-12.8l-108.8 108.8c29.155 12.089 59.022 21.163 89.6 27.221 30.579 6.030 62.579 9.045 96 9.045 107.379 0 203.021-29.682 286.933-89.045 83.913-59.392 144.713-136.377 182.4-230.955-16.354-41.954-37.858-80.896-64.512-116.821-26.679-35.895-57.801-67.358-93.355-94.379zM626.133 454.409l-128 128c19.913 3.555 38.229 1.963 54.955-4.779 16.695-6.77 31.091-16.555 43.179-29.355s20.809-27.563 26.155-44.288c5.321-16.695 6.558-33.225 3.712-49.579z" />
<glyph unicode="&#xe927;" glyph-name="password-show" d="M520.853 277.333c53.333 0 98.675 18.658 136.021 55.979 37.321 37.346 55.979 82.688 55.979 136.021s-18.658 98.674-55.979 136.021c-37.346 37.319-82.688 55.979-136.021 55.979s-98.673-18.659-136.020-55.979c-37.319-37.347-55.979-82.688-55.979-136.021s18.659-98.675 55.979-136.021c37.347-37.321 82.687-55.979 136.020-55.979zM520.853 354.133c-32 0-59.191 11.209-81.579 33.621-22.413 22.387-33.62 49.579-33.62 81.579s11.207 59.209 33.62 81.621c22.387 22.386 49.579 33.579 81.579 33.579s59.209-11.193 81.621-33.579c22.387-22.413 33.579-49.621 33.579-81.621s-11.191-59.191-33.579-81.579c-22.413-22.413-49.621-33.621-81.621-33.621zM520.853 149.333c-103.821 0-198.399 28.983-283.732 86.955-85.333 57.941-147.2 135.625-185.6 233.045 38.4 97.422 100.267 175.118 185.6 233.088 85.333 57.941 179.911 86.912 283.732 86.912 103.825 0 198.4-28.971 283.733-86.912 85.333-57.97 147.2-135.666 185.6-233.088-38.4-97.421-100.267-175.104-185.6-233.045-85.333-57.971-179.908-86.955-283.733-86.955z" />
<glyph unicode="&#xe928;" glyph-name="payment" d="M853.5 789.333h-682.666c-47.36 0-84.907-37.973-84.907-85.333l-0.427-512c0-47.36 37.973-85.333 85.333-85.333h682.666c47.36 0 85.333 37.973 85.333 85.333v512c0 47.36-37.973 85.333-85.333 85.333zM853.5 192h-682.666v256h682.666v-256zM853.5 618.667h-682.666v85.333h682.666v-85.333z" />
<glyph unicode="&#xe929;" glyph-name="percent" d="M320 490.667c-41.245 0-76.445 14.579-105.6 43.733s-43.733 64.355-43.733 105.6 14.578 76.445 43.733 105.6c29.155 29.155 64.355 43.733 105.6 43.733s76.445-14.578 105.6-43.733c29.154-29.155 43.733-64.355 43.733-105.6s-14.579-76.445-43.733-105.6c-29.155-29.154-64.355-43.733-105.6-43.733zM320 576c17.778 0 32.889 6.222 45.333 18.667s18.667 27.555 18.667 45.333c0 17.778-6.222 32.889-18.667 45.333s-27.555 18.667-45.333 18.667c-17.778 0-32.889-6.222-45.333-18.667s-18.667-27.555-18.667-45.333c0-17.778 6.222-32.889 18.667-45.333s27.555-18.667 45.333-18.667zM704 106.667c-41.246 0-76.446 14.579-105.6 43.733s-43.733 64.354-43.733 105.6c0 41.246 14.579 76.446 43.733 105.6s64.354 43.733 105.6 43.733c41.246 0 76.446-14.579 105.6-43.733s43.733-64.354 43.733-105.6c0-41.246-14.579-76.446-43.733-105.6s-64.354-43.733-105.6-43.733zM704 192c17.779 0 32.887 6.221 45.333 18.667s18.667 27.554 18.667 45.333c0 17.779-6.221 32.887-18.667 45.333s-27.554 18.667-45.333 18.667c-17.779 0-32.887-6.221-45.333-18.667s-18.667-27.554-18.667-45.333c0-17.779 6.221-32.887 18.667-45.333s27.554-18.667 45.333-18.667zM230.4 106.667l-59.733 59.733 622.933 622.933 59.733-59.733-622.933-622.933z" />
<glyph unicode="&#xe92a;" glyph-name="point" d="M506.342 719.454l39.262-79.486 87.915-12.846-63.505-61.943 14.972-87.594-78.643 41.31-78.643-41.31 14.976 87.594-63.508 61.943 87.875 12.846 39.3 79.486zM622.272 307.895c17.583 29.385 43.439 44.437 77.722 44.843 34.283 0.401 51.584 17.86 52.147 52.224 0.482 34.206 15.373 60.058 44.762 77.559 29.466 17.583 35.849 41.229 19.068 71.177-16.7 29.868-16.7 59.735 0 89.682 16.781 29.868 10.436 53.472-19.068 71.055-29.389 17.623-44.322 43.436-44.762 77.8-0.563 34.203-17.865 51.665-52.147 52.067-34.283 0.482-60.139 15.456-77.722 44.841-17.583 29.466-41.229 35.849-71.095 19.069-29.867-16.7-59.814-16.7-89.681 0-29.909 16.74-53.552 10.397-71.136-19.069-17.543-29.426-43.436-44.4-77.679-44.841-34.203-0.401-51.585-17.864-52.067-52.067-0.562-34.363-15.455-60.136-44.841-77.8-29.466-17.583-35.929-41.148-19.069-71.055 16.78-29.947 16.78-59.815 0-89.682-16.861-29.948-10.438-53.632 19.069-71.177 29.386-17.502 44.319-43.354 44.841-77.559 0.482-34.321 17.865-51.823 52.067-52.224 34.283-0.405 60.136-15.458 77.719-44.843 17.583-29.466 41.229-35.849 71.095-18.987 29.867 16.538 59.814 16.538 89.681 0 29.867-16.823 53.555-10.479 71.095 18.987zM506.411 410.948c-103.652 0-187.633 83.981-187.633 187.633 0 103.572 83.982 187.554 187.633 187.554 103.573 0 187.554-83.982 187.554-187.554 0-103.652-83.981-187.633-187.554-187.633zM268.786 342.016c0 0 4.817-16.781 40.867-16.781 43.772-0.951 57.065-20.284 69.676-38.626 11.342-16.499 22.133-32.192 54.049-32.99 0 1.805-130.068-269.568-130.068-269.568l-62.424 93.935-112.886-12.685 140.786 276.715zM742.016 331.17c-75.584-7.906-84.326-23.791-92.983-39.531-3.123-5.675-6.238-11.332-12.476-16.589-27.055-28.864-60.855-23.206-60.855-23.206l158.771-273.182 39.057 101.167 111.040-14.494-142.554 265.835z" />
<glyph unicode="&#xe92b;" glyph-name="print" d="M236.083 673.75v170.667h512v-170.667h-512zM748.083 439.083c12.087 0 22.217 4.096 30.379 12.288 8.192 8.162 12.288 18.291 12.288 30.379s-4.096 22.229-12.288 30.421c-8.162 8.162-18.291 12.245-30.379 12.245s-22.217-4.083-30.379-12.245c-8.192-8.192-12.288-18.334-12.288-30.421s4.096-22.217 12.288-30.379c8.162-8.192 18.291-12.288 30.379-12.288zM321.417 161.749h341.333v170.667h-341.333v-170.667zM236.083 76.416v170.667h-170.667v256c0 36.268 12.445 66.66 37.333 91.18 24.889 24.547 55.111 36.821 90.667 36.821h597.333c36.267 0 66.675-12.274 91.221-36.821 24.521-24.519 36.779-54.912 36.779-91.18v-256h-170.667v-170.667h-512z" />
<glyph unicode="&#xe92c;" glyph-name="onsen" d="M286.959 619.25c-23.467 0-43.549 8.363-60.245 25.088-16.725 16.697-25.088 36.779-25.088 60.245s8.363 43.549 25.088 60.245c16.697 16.725 36.779 25.088 60.245 25.088s43.548-8.363 60.245-25.088c16.725-16.697 25.088-36.779 25.088-60.245s-8.363-43.549-25.088-60.245c-16.697-16.725-36.779-25.088-60.245-25.088zM158.959 21.918c-23.467 0-43.549 8.346-60.245 25.045-16.725 16.725-25.088 36.821-25.088 60.288v341.333h128v32c0 27.021 9.244 49.775 27.733 68.265s41.244 27.733 68.267 27.733c14.222 0 27.563-2.844 40.021-8.533 12.43-5.689 23.267-13.511 32.512-23.467l59.734-66.132c4.979-5.692 10.313-11.025 16-16 5.687-4.979 11.733-9.6 18.133-13.867h462.933v-341.333c0-23.467-8.35-43.563-25.045-60.288-16.725-16.7-36.821-25.045-60.288-25.045h-682.667zM756.292 533.917l4.267 25.6c3.554 17.067 2.675 33.778-2.645 50.133-5.346 16.355-15.134 31.645-29.355 45.867-22.754 22.756-38.571 47.474-47.445 74.155-8.905 26.653-11.575 54.557-8.021 83.712l2.133 19.2h81.067l-4.267-25.6c-2.846-17.067-2.133-33.422 2.133-49.067s13.513-30.578 27.733-44.8c22.754-22.755 38.942-47.815 48.555-75.179 9.587-27.392 12.599-55.665 9.045-84.821l-2.133-19.2h-81.067zM585.626 533.917l4.267 25.6c3.554 17.067 2.675 33.778-2.645 50.133-5.346 16.355-15.134 31.645-29.355 45.867-22.754 22.756-38.571 47.474-47.445 74.155-8.905 26.653-11.575 54.557-8.021 83.712l2.133 19.2h81.067l-4.267-25.6c-3.554-17.067-3.017-33.422 1.621-49.067 4.608-15.644 14.025-30.578 28.245-44.8 22.754-22.755 38.942-47.815 48.555-75.179 9.587-27.392 12.599-55.665 9.045-84.821l-2.133-19.2h-81.067zM713.626 107.251h85.333v256h-85.333v-256zM542.959 107.251h85.333v256h-85.333v-256zM372.292 107.251h85.334v256h-85.334v-256zM201.625 107.251h85.333v256h-85.333v-256z" />
<glyph unicode="&#xe92d;" glyph-name="qrcode" d="M114.583 510.353v341.335h341.331v-341.335h-341.331zM199.917 595.688h170.667v170.667h-170.667v-170.667zM114.583 83.686v341.333h341.331v-341.333h-341.331zM199.917 169.020h170.667v170.667h-170.667v-170.667zM541.248 510.353v341.335h341.333v-341.335h-341.333zM626.581 595.688h170.667v170.667h-170.667v-170.667zM797.248 83.686v85.333h85.333v-85.333h-85.333zM541.248 339.686v85.333h85.333v-85.333h-85.333zM626.581 254.353v85.333h85.333v-85.333h-85.333zM541.248 169.020v85.333h85.333v-85.333h-85.333zM626.581 83.686v85.333h85.333v-85.333h-85.333zM711.915 169.020v85.333h85.333v-85.333h-85.333zM711.915 339.686v85.333h85.333v-85.333h-85.333zM797.248 254.353v85.333h85.333v-85.333h-85.333z" />
<glyph unicode="&#xe92e;" glyph-name="question" d="M524.582 40.478c-58.308 0-113.421 11.209-165.332 33.621-51.911 22.387-97.237 52.779-135.979 91.179-38.769 38.4-69.347 83.558-91.733 135.467-22.414 51.913-33.621 107.379-33.621 166.4 0 59.025 11.207 114.49 33.621 166.401 22.386 51.911 52.964 97.067 91.733 135.467 38.741 38.4 84.068 68.807 135.979 91.221 51.911 22.386 107.024 33.579 165.332 33.579 59.733 0 115.558-11.193 167.467-33.579 51.913-22.414 97.067-52.821 135.467-91.221s68.625-83.555 90.667-135.467c22.046-51.911 33.067-107.376 33.067-166.401 0-59.021-11.021-114.487-33.067-166.4-22.042-51.908-52.267-97.067-90.667-135.467s-83.554-68.791-135.467-91.179c-51.908-22.413-107.733-33.621-167.467-33.621zM484.049 375.411h78.933c0 23.467 2.675 41.958 8.021 55.467 5.321 13.513 20.425 32 45.312 55.467 18.492 18.492 33.067 36.096 43.733 52.823 10.667 16.697 16 36.779 16 60.245 0 39.822-14.575 70.4-43.733 91.733-29.154 21.333-63.642 32-103.467 32-40.533 0-73.412-10.667-98.645-32-25.258-21.333-42.865-46.933-52.82-76.8l70.399-27.733c3.558 12.8 11.563 26.667 24.021 41.6 12.433 14.933 31.445 22.4 57.045 22.4 22.758 0 39.825-6.215 51.2-18.645 11.379-12.459 17.067-26.155 17.067-41.088 0-14.222-4.267-27.549-12.8-39.979-8.533-12.459-19.2-24.023-32-34.689-31.287-27.733-50.487-48.708-57.6-62.933-7.108-14.221-10.667-40.175-10.667-77.867zM522.449 211.145c14.933 0 27.563 5.163 37.888 15.488 10.3 10.3 15.445 22.912 15.445 37.845s-5.146 27.55-15.445 37.845c-10.325 10.325-22.955 15.488-37.888 15.488s-27.563-5.163-37.888-15.488c-10.295-10.295-15.445-22.912-15.445-37.845s5.15-27.546 15.445-37.845c10.325-10.325 22.955-15.488 37.888-15.488z" />
<glyph unicode="&#xe92f;" glyph-name="recommended" d="M248.533 21.333l99.2 324.267-262.4 187.733h324.267l102.4 341.333 102.4-341.333h324.267l-262.4-187.733 99.2-324.267-263.467 200.533-263.467-200.533z" />
<glyph unicode="&#xe930;" glyph-name="visibility" d="M512 768c-213.333 0-395.52-132.693-469.333-320 73.813-187.307 256-320 469.333-320s395.52 132.693 469.333 320c-73.813 187.307-256 320-469.333 320zM512 234.667c-117.76 0-213.333 95.573-213.333 213.333s95.573 213.333 213.333 213.333 213.333-95.573 213.333-213.333-95.573-213.333-213.333-213.333zM512 576c-70.827 0-128-57.173-128-128s57.173-128 128-128 128 57.173 128 128-57.173 128-128 128z" />
<glyph unicode="&#xe931;" glyph-name="visibility-off" d="M512 704c161.707 0 305.92-90.88 376.32-234.667-25.173-52.053-60.587-96.853-102.827-133.12l60.16-60.16c59.307 52.48 106.24 118.187 135.68 193.28-73.813 187.307-256 320-469.333 320-54.187 0-106.24-8.533-155.307-24.32l70.4-70.4c27.733 5.547 55.893 9.387 84.907 9.387zM466.347 655.36l88.32-88.32c24.32-10.667 43.947-30.293 54.613-54.613l88.32-88.32c3.413 14.507 5.973 29.867 5.973 45.653 0.427 105.813-85.76 191.573-191.573 191.573-15.787 0-30.72-2.133-45.653-5.973zM85.76 794.88l114.347-114.347c-69.547-54.613-124.587-127.147-157.44-211.2 73.813-187.307 256-320 469.333-320 64.853 0 127.147 12.373 184.32 34.987l145.92-145.92 60.16 60.16-756.48 756.907-60.16-60.587zM405.76 474.88l111.36-111.36c-1.707-0.427-3.413-0.853-5.12-0.853-58.88 0-106.667 47.787-106.667 106.667 0 2.133 0.427 3.413 0.427 5.547zM260.693 619.947l74.667-74.667c-9.813-23.467-15.36-49.067-15.36-75.947 0-105.813 86.187-192 192-192 26.88 0 52.48 5.547 75.52 15.36l41.813-41.813c-37.547-10.24-76.8-16.213-117.333-16.213-161.707 0-305.92 90.88-376.32 234.667 29.867 61.013 73.387 111.36 125.013 150.613z" />
<glyph unicode="&#xe932;" glyph-name="reservation" d="M512 64v90.667l226.133 226.133 90.667-90.667-226.133-226.133h-90.667zM128 277.333v85.333h298.667v-85.333h-298.667zM858.667 320l-90.667 90.667 30.933 30.933c7.821 7.821 17.779 11.733 29.867 11.733s22.046-3.913 29.867-11.733l30.933-30.933c7.821-7.821 11.733-17.779 11.733-29.867s-3.913-22.046-11.733-29.867l-30.933-30.933zM128 448v85.333h469.333v-85.333h-469.333zM128 618.667v85.333h469.333v-85.333h-469.333z" />
<glyph unicode="&#xe933;" glyph-name="restaurant" d="M725.333 21.333v341.333h-128v298.667c0 59.022 20.809 109.326 62.421 150.912 41.587 41.614 91.891 62.421 150.912 62.421v-853.333h-85.333zM298.667 21.333v390.4c-36.267 9.954-66.659 29.867-91.179 59.733-24.547 29.867-36.821 64.711-36.821 104.533v298.667h85.333v-298.667h42.667v298.667h85.333v-298.667h42.667v298.667h85.333v-298.667c0-39.822-12.275-74.667-36.821-104.533-24.521-29.867-54.912-49.779-91.179-59.733v-390.4h-85.333z" />
<glyph unicode="&#xe934;" glyph-name="door" d="M122.083 59.895v85.333h85.333v682.667h426.665v-42.667h170.667v-640h85.333v-85.333h-170.667v640h-85.333v-640h-511.999zM506.082 443.895c0 12.087-4.079 22.229-12.245 30.421-8.192 8.162-18.33 12.245-30.421 12.245-12.087 0-22.212-4.083-30.379-12.245-8.191-8.192-12.287-18.334-12.287-30.421s4.096-22.217 12.287-30.379c8.166-8.192 18.291-12.288 30.379-12.288 12.092 0 22.229 4.096 30.421 12.288 8.166 8.162 12.245 18.291 12.245 30.379z" />
<glyph unicode="&#xe935;" glyph-name="search" d="M836.267 64l-268.8 268.8c-21.333-17.067-45.867-30.579-73.6-40.533s-57.246-14.933-88.533-14.933c-77.511 0-143.104 26.837-196.779 80.512-53.703 53.705-80.555 119.309-80.555 196.821 0 77.511 26.851 143.118 80.555 196.821 53.675 53.675 119.267 80.512 196.779 80.512 77.513 0 143.117-26.837 196.821-80.512 53.675-53.703 80.512-119.31 80.512-196.821 0-31.287-4.979-60.8-14.933-88.533s-23.467-52.267-40.533-73.6l268.8-268.8-59.733-59.733zM405.333 362.667c53.333 0 98.675 18.658 136.021 55.979 37.321 37.346 55.979 82.688 55.979 136.021s-18.658 98.674-55.979 136.021c-37.346 37.319-82.688 55.979-136.021 55.979s-98.674-18.659-136.021-55.979c-37.319-37.347-55.979-82.688-55.979-136.021s18.659-98.675 55.979-136.021c37.347-37.321 82.688-55.979 136.021-55.979z" />
<glyph unicode="&#xe936;" glyph-name="setting" d="M383.217 9.459l-17.067 136.533c-9.245 3.554-17.949 7.821-26.112 12.8-8.192 4.975-16.199 10.308-24.021 16l-126.933-53.333-117.333 202.667 109.867 83.2c-0.711 4.975-1.067 9.783-1.067 14.421 0 4.608 0 9.399 0 14.379 0 4.975 0 9.783 0 14.421 0 4.608 0.355 9.399 1.067 14.379l-109.867 83.199 117.333 202.667 126.933-53.333c7.822 5.689 16 11.022 24.533 16s17.067 9.245 25.6 12.8l17.067 136.533h234.665l17.067-136.533c9.246-3.555 17.963-7.822 26.155-12.8 8.166-4.978 16.158-10.311 23.979-16l126.933 53.333 117.333-202.667-109.867-83.199c0.713-4.979 1.067-9.771 1.067-14.379 0-4.638 0-9.446 0-14.421 0-4.979 0-9.771 0-14.379 0-4.638-0.708-9.446-2.133-14.421l109.867-83.2-117.333-202.667-125.867 53.333c-7.821-5.692-16-11.025-24.533-16-8.533-4.979-17.067-9.246-25.6-12.8l-17.067-136.533h-234.665zM502.682 286.793c41.246 0 76.446 14.575 105.6 43.733 29.158 29.154 43.733 64.354 43.733 105.6 0 41.242-14.575 76.442-43.733 105.599-29.154 29.155-64.354 43.733-105.6 43.733-41.954 0-77.339-14.578-106.153-43.733-28.786-29.158-43.179-64.358-43.179-105.599 0-41.246 14.393-76.446 43.179-105.6 28.814-29.158 64.199-43.733 106.153-43.733z" />
<glyph unicode="&#xe937;" glyph-name="smoke-free" d="M812.198 276.459l-36.267 36.267v91.733h64v-128h-27.733zM733.265 355.392l-49.067 49.067h49.067v-49.067zM882.598 276.459v128h64v-128h-64zM852.732-5.141l-281.6 281.6h-477.865v128h349.865l-375.465 375.466 59.733 59.733 785.065-785.066-59.733-59.733zM775.932 447.125v55.467c0 27.733-8.175 48.896-24.533 63.488-16.354 14.564-35.908 21.845-58.667 21.845h-66.133c-39.821 0-73.6 13.867-101.333 41.6s-41.6 61.511-41.6 101.333c0 39.823 13.867 73.6 41.6 101.333s61.513 41.6 101.333 41.6v-64c-21.333 0-39.821-7.467-55.467-22.4-15.642-14.933-23.467-33.777-23.467-56.533s7.825-41.6 23.467-56.533c15.646-14.933 34.133-22.4 55.467-22.4h66.133c39.825 0 74.313-12.8 103.467-38.4 29.158-25.6 43.733-57.6 43.733-96v-70.4h-64zM882.598 447.125v96c0 46.933-16.354 87.467-49.067 121.6-32.708 34.133-73.242 51.2-121.6 51.2v64c21.333 0 39.825 7.823 55.467 23.467 15.646 15.645 23.467 34.133 23.467 55.467h64c0-20.622-3.908-39.281-11.733-55.979-7.821-16.725-18.133-32.199-30.933-46.421 39.825-18.489 72.179-46.933 97.067-85.333 24.892-38.4 37.333-81.067 37.333-128v-96h-64z" />
<glyph unicode="&#xe938;" glyph-name="smoke" d="M768 234.667v128h64v-128h-64zM85.333 234.667v128h640v-128h-640zM768 405.333v55.467c0 27.733-8.179 48.896-24.533 63.488-16.354 14.563-35.913 21.845-58.667 21.845h-66.133c-39.821 0-73.6 13.867-101.333 41.6s-41.6 61.511-41.6 101.333c0 39.822 13.867 73.6 41.6 101.333s61.513 41.6 101.333 41.6v-64c-21.333 0-39.821-7.467-55.467-22.4s-23.467-33.778-23.467-56.533c0-22.755 7.821-41.6 23.467-56.533s34.133-22.4 55.467-22.4h66.133c39.821 0 74.313-12.8 103.467-38.4s43.733-57.6 43.733-96v-70.4h-64zM874.667 234.667v128h64v-128h-64zM874.667 405.333v96c0 46.933-16.354 87.467-49.067 121.6s-73.246 51.2-121.6 51.2v64c21.333 0 39.821 7.822 55.467 23.467s23.467 34.133 23.467 55.467c0 21.333-7.821 39.822-23.467 55.467s-34.133 23.467-55.467 23.467v64c39.821 0 73.6-13.867 101.333-41.6s41.6-61.511 41.6-101.333c0-20.622-3.913-39.282-11.733-55.979-7.821-16.725-18.133-32.199-30.933-46.421 39.821-18.489 72.179-46.933 97.067-85.333s37.333-81.067 37.333-128v-96h-64z" />
<glyph unicode="&#xe939;" glyph-name="sort" d="M118.708 187.042v85.333h256v-85.333h-256zM118.708 400.375v85.333h511.999v-85.333h-511.999zM118.708 613.708v85.333h767.999v-85.333h-767.999z" />
<glyph unicode="&#xe93a;" glyph-name="table-sort" d="M519.356 44.352l-192.002 192 61.867 61.867 130.135-130.133 130.133 130.133 61.867-61.867-192-192zM389.221 554.217l-61.867 61.867 192.002 192 192-192-61.867-61.867-130.133 130.133-130.135-130.133z" />
<glyph unicode="&#xe93b;" glyph-name="time" d="M512 64c-98.133 0-183.645 32.533-256.533 97.6s-114.667 146.313-125.333 243.733h87.467c9.955-73.954 42.845-135.113 98.667-183.467s121.067-72.533 195.733-72.533c83.2 0 153.779 28.979 211.733 86.933s86.933 128.533 86.933 211.733c0 83.2-28.979 153.778-86.933 211.733s-128.533 86.933-211.733 86.933c-49.067 0-94.933-11.378-137.6-34.133s-78.578-54.045-107.733-93.867h117.333v-85.333h-256v256h85.333v-100.267c36.267 45.511 80.533 80.711 132.8 105.6s107.554 37.333 165.867 37.333c53.333 0 103.287-10.133 149.867-30.4s87.113-47.645 121.6-82.133c34.487-34.489 61.867-75.022 82.133-121.6s30.4-96.533 30.4-149.867c0-53.333-10.133-103.287-30.4-149.867s-47.646-87.113-82.133-121.6c-34.487-34.487-75.021-61.867-121.6-82.133s-96.533-30.4-149.867-30.4zM631.467 268.8l-162.133 162.133v230.4h85.333v-196.267l136.533-136.533-59.733-59.733z" />
<glyph unicode="&#xe93c;" glyph-name="toilet" d="M372.926 831.278c1.087-0.355 3.931-1.056 6.322-1.558 19.885-4.173 40.172-18.054 52.057-35.616 11.132-16.449 15.906-33.312 15.906-56.168v-7.189h13.935c16.674 0 22.17-1.186 27.904-6.019 4.954-4.18 8.738-12.025 8.738-18.129 0-3.271-2.291-10.567-4.062-12.928-2.867-3.825-6.191-6.773-9.374-8.313-3.52-1.704-4.087-1.725-59.663-2.123-53.199-0.381-56.335-0.482-60.456-1.957-5.215-1.866-10.728-7.053-13.263-12.478-2.454-5.253-2.45-14.175 0.006-19.415 2.246-4.79 7.083-9.636 11.864-11.887 3.715-1.748 4.061-1.763 43.109-1.763 29.561 0 39.601-0.237 40.313-0.95 1.523-1.527 1.301-196.305-0.239-206.489-1.562-10.334-3.383-16.892-6.771-24.337-0.841-1.847-1.527-3.541-1.527-3.763s88.823-0.405 197.385-0.405c193.502 0 197.461-0.030 201.583-1.536 7.842-2.871 13.257-8.559 15.492-16.269 1.873-6.443 1.553-9.621-1.69-16.905-1.758-3.942-6.963-8.747-11.806-10.893l-4.292-1.903h-292.817c-197.692 0-294.022 0.265-296.526 0.815-2.040 0.448-5.487 1.186-7.66 1.643-16.77 3.511-37.148 16.572-47.432 30.4-1.295 1.745-2.789 3.627-3.319 4.19-3.298 3.499-10.944 20.228-12.925 28.275-3.048 12.382-3.052 12.612-3.052 174.581 0 161.382 0.024 162.78 2.993 174.186 8.224 31.601 34.003 56.747 64.921 63.328 2.391 0.509 5.439 1.254 6.773 1.656 3.003 0.905 124.791 0.825 127.572-0.083zM827.593 304.256c0.849-0.853 0.61-7.808-0.666-19.268-1.702-15.322-2.889-20.881-7.249-34.044-8.23-24.858-24.286-48.559-44.51-65.715-2.82-2.398-5.308-4.57-5.525-4.826-1.097-1.306-17.749-11.994-22.921-14.711-7.689-4.045-20.851-9.242-28.843-11.383-11.46-3.076-11.883-3.29-11.639-5.935 0.119-1.284 0.538-3.763 0.926-5.504 0.388-1.745 1.118-5.308 1.626-7.919 0.503-2.611 1.216-6.174 1.579-7.919 0.367-1.741 1.075-5.303 1.583-7.915 0.503-2.615 1.216-6.178 1.579-7.919s1.054-5.129 1.527-7.522c0.478-2.394 3.055-15.219 5.726-28.501 5.589-27.759 6.101-34.436 3.098-40.273-2.633-5.111-5.995-8.427-11.294-11.145l-4.723-2.423h-157.602c-93.901 0-158.157 0.294-158.975 0.725-0.755 0.401-2.629 1.271-4.165 1.937-3.845 1.664-8.902 6.822-10.929 11.14-3.053 6.507-2.556 10.402 8.19 64.201 5.433 27.204 9.878 49.98 9.878 50.62 0 0.7-1.336 1.515-3.359 2.048-1.847 0.486-4.781 1.254-6.519 1.702-14.183 3.665-31.915 11.712-44.74 20.305-16.903 11.324-30.895 25.498-43.236 43.802-2.854 4.237-11.226 20.301-12.725 24.418-0.555 1.527-1.305 3.486-1.667 4.356-2.518 6.054-5.481 17.378-7.873 30.089-0.492 2.611-0.96 9.916-1.041 16.23l-0.147 11.477 277.055 0.201c152.38 0.111 277.291-0.038 277.581-0.329z" />
<glyph unicode="&#xe93d;" glyph-name="account" d="M512 448c-46.933 0-87.111 16.713-120.533 50.133s-50.133 73.6-50.133 120.533c0 46.933 16.711 87.111 50.133 120.533s73.6 50.133 120.533 50.133c46.933 0 87.113-16.711 120.533-50.133s50.133-73.6 50.133-120.533c0-46.933-16.713-87.113-50.133-120.533s-73.6-50.133-120.533-50.133zM170.667 106.667v119.467c0 24.179 6.229 46.409 18.688 66.688 12.43 20.254 28.957 35.712 49.579 46.379 44.089 22.046 88.889 38.583 134.4 49.621 45.511 11.008 91.733 16.512 138.667 16.512s93.154-5.504 138.667-16.512c45.513-11.038 90.313-27.575 134.4-49.621 20.621-10.667 37.15-26.125 49.579-46.379 12.459-20.279 18.688-42.509 18.688-66.688v-119.467h-682.667z" />
<glyph unicode="&#xe93e;" glyph-name="triangle" horiz-adv-x="1067" d="M88.417 106.667l426.668 682.667 426.667-682.667h-853.335z" />
<glyph unicode="&#xe93f;" glyph-name="circle" horiz-adv-x="1067" d="M521.165 21.333c-59.021 0-114.487 11.2-166.398 33.6s-97.067 52.8-135.467 91.2c-38.4 38.4-68.8 83.554-91.2 135.467s-33.6 107.379-33.6 166.4c0 59.021 11.2 114.489 33.6 166.4s52.8 97.067 91.2 135.467c38.4 38.4 83.556 68.8 135.467 91.2s107.377 33.6 166.398 33.6c59.025 0 114.492-11.2 166.4-33.6 51.913-22.4 97.067-52.8 135.467-91.2s68.8-83.555 91.2-135.467c22.4-51.911 33.6-107.379 33.6-166.4s-11.2-114.487-33.6-166.4c-22.4-51.913-52.8-97.067-91.2-135.467s-83.554-68.8-135.467-91.2c-51.908-22.4-107.375-33.6-166.4-33.6zM521.165 106.667c95.292 0 176 33.067 242.133 99.2s99.2 146.846 99.2 242.133c0 95.289-33.067 176-99.2 242.133s-146.842 99.2-242.133 99.2c-95.287 0-175.998-33.067-242.132-99.2s-99.2-146.845-99.2-242.133c0-95.287 33.067-176 99.2-242.133s146.845-99.2 242.132-99.2z" />
<glyph unicode="&#xe940;" glyph-name="bell" d="M170.667 149.333v85.333h85.333v298.667c0 59.022 17.778 111.474 53.333 157.355 35.555 45.853 81.778 75.89 138.667 90.112v29.867c0 17.778 6.229 32.882 18.688 45.312 12.429 12.459 27.533 18.688 45.312 18.688s32.883-6.229 45.312-18.688c12.459-12.43 18.688-27.534 18.688-45.312v-29.867c56.887-14.222 103.113-44.259 138.667-90.112 35.554-45.881 53.333-98.333 53.333-157.355v-298.667h85.333v-85.333h-682.667zM512 21.333c-23.467 0-43.55 8.35-60.245 25.045-16.725 16.725-25.088 36.821-25.088 60.288h170.667c0-23.467-8.35-43.563-25.045-60.288-16.725-16.695-36.821-25.045-60.288-25.045z" />
<glyph unicode="&#xe941;" glyph-name="shower" d="M341.333 192c-12.089 0-22.222 4.090-30.4 12.265-8.178 8.181-12.267 18.313-12.267 30.401s4.089 22.221 12.267 30.401c8.178 8.175 18.311 12.265 30.4 12.265s22.222-4.090 30.4-12.265c8.178-8.181 12.266-18.313 12.266-30.401s-4.089-22.221-12.266-30.401c-8.178-8.175-18.311-12.265-30.4-12.265zM512 192c-12.089 0-22.222 4.090-30.4 12.265-8.177 8.181-12.266 18.313-12.266 30.401s4.089 22.221 12.266 30.401c8.178 8.175 18.311 12.265 30.4 12.265s22.222-4.090 30.4-12.265c8.177-8.181 12.266-18.313 12.266-30.401s-4.089-22.221-12.266-30.401c-8.178-8.175-18.311-12.265-30.4-12.265zM682.667 192c-12.089 0-22.221 4.090-30.401 12.265-8.175 8.181-12.265 18.313-12.265 30.401s4.090 22.221 12.265 30.401c8.181 8.175 18.313 12.265 30.401 12.265s22.221-4.090 30.401-12.265c8.175-8.181 12.265-18.313 12.265-30.401s-4.090-22.221-12.265-30.401c-8.181-8.175-18.313-12.265-30.401-12.265zM213.333 362.667v85.333c0 75.378 24.178 140.8 72.533 196.267s109.511 88.178 183.467 98.133v89.6h85.333v-89.6c73.956-9.956 135.111-42.667 183.467-98.133s72.533-120.889 72.533-196.267v-85.333h-597.333zM341.333 64c-12.089 0-22.222 4.090-30.4 12.265-8.178 8.181-12.267 18.313-12.267 30.401s4.089 22.221 12.267 30.401c8.178 8.175 18.311 12.265 30.4 12.265s22.222-4.090 30.4-12.265c8.178-8.181 12.266-18.313 12.266-30.401s-4.089-22.221-12.266-30.401c-8.178-8.175-18.311-12.265-30.4-12.265zM512 64c-12.089 0-22.222 4.090-30.4 12.265-8.177 8.181-12.266 18.313-12.266 30.401s4.089 22.221 12.266 30.401c8.178 8.175 18.311 12.265 30.4 12.265s22.222-4.090 30.4-12.265c8.177-8.181 12.266-18.313 12.266-30.401s-4.089-22.221-12.266-30.401c-8.178-8.175-18.311-12.265-30.4-12.265zM682.667 64c-12.089 0-22.221 4.090-30.401 12.265-8.175 8.181-12.265 18.313-12.265 30.401s4.090 22.221 12.265 30.401c8.181 8.175 18.313 12.265 30.401 12.265s22.221-4.090 30.401-12.265c8.175-8.181 12.265-18.313 12.265-30.401s-4.090-22.221-12.265-30.401c-8.181-8.175-18.313-12.265-30.401-12.265z" />
<glyph unicode="&#xe942;" glyph-name="room-size" d="M190.146 108.561c-23.467 0-43.548 8.35-60.245 25.045-16.725 16.725-25.088 36.821-25.088 60.288v512.001c0 23.467 8.363 43.549 25.088 60.245 16.697 16.725 36.779 25.088 60.245 25.088h682.665c23.467 0 43.563-8.363 60.288-25.088 16.7-16.697 25.045-36.779 25.045-60.245v-512.001c0-23.467-8.346-43.563-25.045-60.288-16.725-16.695-36.821-25.045-60.288-25.045h-682.665zM232.812 449.894h85.333v128.001h127.998v85.333h-213.332v-213.335zM616.811 236.561h213.333v213.333h-85.333v-128h-128v-85.333z" />
<glyph unicode="&#xe943;" glyph-name="close" d="M273.067 149.333l-59.733 59.733 238.933 238.933-238.933 238.933 59.733 59.733 238.933-238.933 238.933 238.933 59.733-59.733-238.933-238.933 238.933-238.933-59.733-59.733-238.933 238.933-238.933-238.933z" />
<glyph unicode="&#xe944;" glyph-name="delete-2" d="M298.667 64c-23.467 0-43.555 8.354-60.267 25.067s-25.067 36.8-25.067 60.267v554.667h-42.667v85.333h213.333v42.667h256v-42.667h213.333v-85.333h-42.667v-554.667c0-23.467-8.354-43.554-25.067-60.267s-36.8-25.067-60.267-25.067h-426.667zM384 234.667h85.333v384h-85.333v-384zM554.667 234.667h85.333v384h-85.333v-384z" />
<glyph unicode="&#xe945;" glyph-name="user" d="M42.667 106.667v119.467c0 24.179 6.229 46.409 18.688 66.688 12.43 20.254 28.957 35.712 49.579 46.379 44.089 22.046 88.889 38.583 134.4 49.621 45.511 11.008 91.733 16.512 138.667 16.512s93.154-5.504 138.667-16.512c45.513-11.038 90.313-27.575 134.4-49.621 20.621-10.667 37.15-26.125 49.579-46.379 12.459-20.279 18.688-42.509 18.688-66.688v-119.467h-682.667zM810.667 106.667v128c0 31.287-8.704 61.342-26.112 90.155-17.438 28.787-42.155 53.491-74.155 74.112 36.267-4.267 70.4-11.55 102.4-21.845 32-10.325 61.867-22.955 89.6-37.888 25.6-14.221 45.154-30.037 58.667-47.445 13.513-17.438 20.267-36.467 20.267-57.088v-128h-170.667zM384 448c-46.933 0-87.111 16.713-120.533 50.133s-50.133 73.6-50.133 120.533c0 46.933 16.711 87.111 50.133 120.533s73.6 50.133 120.533 50.133c46.933 0 87.113-16.711 120.533-50.133s50.133-73.6 50.133-120.533c0-46.933-16.713-87.113-50.133-120.533s-73.6-50.133-120.533-50.133zM640 448c-7.821 0-17.779 0.883-29.867 2.645-12.087 1.792-22.046 3.755-29.867 5.888 19.2 22.754 33.95 48 44.245 75.733 10.325 27.733 15.488 56.533 15.488 86.4s-5.163 58.667-15.488 86.4c-10.295 27.733-25.045 52.978-44.245 75.733 9.954 3.555 19.913 5.874 29.867 6.955 9.954 1.053 19.913 1.579 29.867 1.579 46.933 0 87.113-16.711 120.533-50.133s50.133-73.6 50.133-120.533c0-46.933-16.713-87.113-50.133-120.533s-73.6-50.133-120.533-50.133z" />
<glyph unicode="&#xe946;" glyph-name="payment-2" d="M128 106.661c-23.467 0-43.555 8.357-60.266 25.071-16.711 16.708-25.067 36.796-25.067 60.262v469.336h85.333v-469.336h725.333v-85.333h-725.333zM298.667 277.328c-23.467 0-43.555 8.357-60.266 25.071-16.711 16.708-25.067 36.796-25.067 60.262v341.336c0 23.467 8.356 43.555 25.067 60.266s36.8 25.067 60.266 25.067h597.333c23.467 0 43.554-8.356 60.268-25.067 16.708-16.711 25.065-36.8 25.065-60.266v-341.336c0-23.467-8.357-43.554-25.065-60.262-16.714-16.714-36.801-25.071-60.268-25.071h-597.333zM384 362.661c0 23.467-8.355 43.558-25.067 60.269s-36.8 25.067-60.266 25.067v-85.336h85.333zM810.667 362.661h85.333v85.336c-23.467 0-43.554-8.356-60.268-25.067-16.708-16.711-25.065-36.802-25.065-60.269zM597.333 405.33c35.556 0 65.775 12.444 90.67 37.333 24.883 24.889 37.33 55.111 37.33 90.667s-12.447 65.778-37.33 90.667c-24.895 24.889-55.114 37.333-90.67 37.333s-65.778-12.444-90.667-37.333c-24.889-24.889-37.333-55.111-37.333-90.667s12.444-65.778 37.333-90.667c24.889-24.889 55.111-37.333 90.667-37.333zM298.667 618.663c23.467 0 43.555 8.355 60.266 25.066s25.067 36.8 25.067 60.267h-85.333v-85.333zM896 618.663v85.333h-85.333c0-23.467 8.357-43.556 25.065-60.267 16.714-16.711 36.801-25.066 60.268-25.066z" />
<glyph unicode="&#xe947;" glyph-name="mail" horiz-adv-x="1067" d="M192 106.667c-23.467 0-43.555 8.354-60.267 25.067s-25.067 36.8-25.067 60.267v512c0 23.467 8.355 43.555 25.067 60.267s36.8 25.067 60.267 25.067h682.667c23.467 0 43.554-8.355 60.267-25.067s25.067-36.8 25.067-60.267v-512c0-23.467-8.354-43.554-25.067-60.267s-36.8-25.067-60.267-25.067h-682.667zM533.333 405.333l341.333 213.333v85.333l-341.333-213.333-341.333 213.333v-85.333l341.333-213.333z" />
<glyph unicode="&#xe948;" glyph-name="call" horiz-adv-x="1067" d="M872.533 64c-88.887 0-176.713 19.379-263.467 58.133s-165.687 93.687-236.8 164.8c-71.111 71.113-126.045 150.046-164.8 236.8-38.755 86.755-58.133 174.578-58.133 263.467 0 12.8 4.267 23.467 12.8 32s19.2 12.8 32 12.8h172.8c9.955 0 18.845-3.378 26.667-10.133s12.445-14.755 13.867-24l27.733-149.333c1.421-11.378 1.067-20.978-1.067-28.8s-6.046-14.578-11.733-20.267l-103.467-104.533c14.222-26.313 31.111-51.733 50.667-76.267s41.067-48.179 64.533-70.933c22.046-22.046 45.154-42.487 69.333-61.333s49.779-36.087 76.8-51.733l100.267 100.267c6.4 6.4 14.754 11.2 25.067 14.4s20.446 4.087 30.4 2.667l147.2-29.867c9.954-2.846 18.133-8 24.533-15.467s9.6-15.821 9.6-25.067v-172.8c0-12.8-4.267-23.467-12.8-32s-19.2-12.8-32-12.8z" />
<glyph unicode="&#xe949;" glyph-name="globe" horiz-adv-x="1067" d="M533.333 21.333c-59.021 0-114.489 11.2-166.4 33.6s-97.067 52.8-135.467 91.2c-38.4 38.4-68.8 83.554-91.2 135.467s-33.6 107.379-33.6 166.4c0 59.021 11.2 114.489 33.6 166.4s52.8 97.067 91.2 135.467c38.4 38.4 83.555 68.8 135.467 91.2s107.379 33.6 166.4 33.6c59.021 0 114.487-11.2 166.4-33.6s97.067-52.8 135.467-91.2c38.4-38.4 68.8-83.555 91.2-135.467s33.6-107.379 33.6-166.4c0-59.021-11.2-114.487-33.6-166.4s-52.8-97.067-91.2-135.467c-38.4-38.4-83.554-68.8-135.467-91.2s-107.379-33.6-166.4-33.6zM533.333 106.667c95.287 0 176 33.067 242.133 99.2s99.2 146.846 99.2 242.133c0 4.979-0.179 10.133-0.533 15.467s-0.533 9.779-0.533 13.333c-3.554-20.621-13.154-37.687-28.8-51.2s-34.133-20.267-55.467-20.267h-85.333c-23.467 0-43.554 8.354-60.267 25.067s-25.067 36.8-25.067 60.267v42.667h-170.667v85.333c0 23.467 8.354 43.555 25.067 60.267s36.8 25.067 60.267 25.067h42.667c0 16.355 4.446 30.755 13.333 43.2s19.733 22.578 32.533 30.4c-14.221 3.555-28.621 6.4-43.2 8.533s-29.687 3.2-45.333 3.2c-95.287 0-176-33.067-242.133-99.2s-99.2-146.845-99.2-242.133h213.333c46.933 0 87.113-16.713 120.533-50.133s50.133-73.6 50.133-120.533v-42.667h-128v-117.333c14.221-3.554 28.267-6.221 42.133-8s28.267-2.667 43.2-2.667z" />
<glyph unicode="&#xe94a;" glyph-name="download" d="M512 277.333l-213.333 213.333 59.733 61.867 110.933-110.933v347.733h85.333v-347.733l110.933 110.933 59.733-61.867-213.333-213.333zM256 106.667c-23.467 0-43.555 8.354-60.267 25.067s-25.067 36.8-25.067 60.267v128h85.333v-128h512v128h85.333v-128c0-23.467-8.354-43.554-25.067-60.267s-36.8-25.067-60.267-25.067h-512z" />
<glyph unicode="&#xe94b;" glyph-name="logout" d="M226.464 85.333c-21.554 0-39.797 7.467-54.731 22.4s-22.4 33.178-22.4 54.729v571.074c0 21.554 7.467 39.797 22.4 54.731s33.177 22.4 54.731 22.4h285.941v-64h-285.941c-3.285 0-6.293-1.369-9.024-4.107-2.738-2.731-4.107-5.739-4.107-9.024v-571.074c0-3.281 1.369-6.293 4.107-9.024 2.731-2.735 5.739-4.105 9.024-4.105h285.941v-64h-285.941zM692.514 265.847l-44.309 46.281 103.881 103.872h-363.979v64h363.979l-103.881 103.872 44.309 46.283 182.153-182.155-182.153-182.153z" />
<glyph unicode="&#xe94c;" glyph-name="person-add" d="M773.333 373.333v128h-128v64h128v128h64v-128h128v-64h-128v-128h-64zM384 461.133c-41.067 0-76.221 14.618-105.461 43.861-29.248 29.246-43.872 64.403-43.872 105.47s14.624 76.221 43.872 105.461c29.241 29.248 64.395 43.872 105.461 43.872s76.22-14.624 105.463-43.872c29.248-29.241 43.87-64.395 43.87-105.461s-14.622-76.224-43.87-105.47c-29.244-29.244-64.397-43.861-105.463-43.861zM64 136.205v94.857c0 20.894 5.675 40.243 17.024 58.048s26.517 31.497 45.504 41.067c42.169 20.672 84.711 36.177 127.627 46.519 42.915 10.338 86.197 15.509 129.845 15.509s86.929-5.171 129.847-15.509c42.914-10.342 85.457-25.847 127.625-46.519 18.987-9.57 34.155-23.262 45.504-41.067s17.024-37.154 17.024-58.048v-94.857h-640z" />
<glyph unicode="&#xe94d;" glyph-name="account-circle" d="M256.981 222.195c36.267 26.91 75.776 48.162 118.528 63.757 42.745 15.586 88.243 23.381 136.491 23.381s93.747-7.795 136.491-23.381c42.752-15.595 82.261-36.847 118.528-63.757 26.526 29.158 47.539 62.908 63.053 101.252 15.509 38.34 23.262 79.859 23.262 124.553 0 94.578-33.246 175.111-99.733 241.6s-147.021 99.733-241.6 99.733c-94.578 0-175.111-33.245-241.6-99.733s-99.733-147.022-99.733-241.6c0-44.693 7.755-86.212 23.264-124.553 15.509-38.345 36.526-72.094 63.051-101.252zM512 416c-38.946 0-71.795 13.376-98.539 40.128-26.752 26.743-40.128 59.593-40.128 98.539 0 38.947 13.376 71.794 40.128 98.539 26.743 26.752 59.593 40.128 98.539 40.128s71.795-13.376 98.539-40.128c26.752-26.745 40.128-59.591 40.128-98.539 0-38.946-13.376-71.795-40.128-98.539-26.743-26.752-59.593-40.128-98.539-40.128zM512 42.667c-56.286 0-109.085 10.586-158.4 31.753-49.315 21.171-92.213 50.001-128.693 86.485-36.487 36.48-65.315 79.381-86.485 128.695s-31.755 102.114-31.755 158.4c0 56.286 10.585 109.085 31.755 158.4s49.998 92.213 86.485 128.693c36.48 36.487 79.378 65.315 128.693 86.485s102.114 31.755 158.4 31.755c56.286 0 109.086-10.585 158.4-31.755s92.215-49.998 128.695-86.485c36.484-36.48 65.314-79.378 86.485-128.693 21.167-49.315 31.753-102.114 31.753-158.4s-10.586-109.086-31.753-158.4c-21.171-49.314-50.001-92.215-86.485-128.695-36.48-36.484-79.381-65.314-128.695-86.485-49.314-21.167-102.114-31.753-158.4-31.753z" />
<glyph unicode="&#xe94e;" glyph-name="settings" d="M413.516 42.667l-16.245 129.971c-11.428 3.827-23.147 9.186-35.157 16.077-12.004 6.899-22.738 14.285-32.203 22.157l-120.373-50.871-98.453 170.667 104.117 78.686c-0.981 6.345-1.679 12.719-2.091 19.115-0.413 6.4-0.619 12.779-0.619 19.127 0 6.067 0.206 12.233 0.619 18.496s1.109 13.116 2.091 20.553l-104.117 78.69 98.453 169.845 119.957-50.464c10.289 8.149 21.273 15.602 32.949 22.357s23.15 12.185 34.421 16.288l16.651 129.973h196.929l16.243-130.379c12.8-4.651 24.38-10.080 34.743-16.288 10.368-6.208 20.83-13.525 31.39-21.952l121.6 50.464 98.453-169.845-105.758-79.915c1.527-6.891 2.364-13.333 2.505-19.328 0.137-5.986 0.205-12.019 0.205-18.091 0-5.794-0.141-11.691-0.418-17.685-0.269-5.986-1.25-12.838-2.944-20.557l104.939-79.091-98.462-170.667-120.119 51.285c-10.56-8.427-21.338-15.881-32.329-22.357-10.995-6.485-22.263-11.78-33.805-15.885l-16.243-130.377h-196.929zM512.469 320c35.499 0 65.707 12.459 90.624 37.376s37.376 55.125 37.376 90.624c0 35.499-12.459 65.707-37.376 90.624s-55.125 37.376-90.624 37.376c-35.938 0-66.257-12.459-90.954-37.376s-37.045-55.125-37.045-90.624c0-35.499 12.348-65.707 37.045-90.624s55.016-37.376 90.954-37.376z" />
<glyph unicode="&#xe94f;" glyph-name="lock" d="M248.833 22.775c-23.467 0-43.549 8.35-60.245 25.045-16.725 16.725-25.088 36.821-25.088 60.288v426.667c0 23.467 8.363 43.563 25.088 60.288 16.697 16.697 36.779 25.045 60.245 25.045h42.667v85.333c0 59.023 20.807 109.341 62.421 150.955 41.586 41.586 91.89 62.379 150.911 62.379 59.025 0 109.342-20.793 150.955-62.379 41.587-41.614 62.379-91.932 62.379-150.955v-85.333h42.667c23.467 0 43.563-8.348 60.288-25.045 16.7-16.725 25.045-36.821 25.045-60.288v-426.667c0-23.467-8.346-43.563-25.045-60.288-16.725-16.695-36.821-25.045-60.288-25.045h-511.999zM504.832 236.109c23.467 0 43.563 8.35 60.288 25.045 16.7 16.725 25.045 36.821 25.045 60.288s-8.346 43.563-25.045 60.288c-16.725 16.695-36.821 25.045-60.288 25.045s-43.546-8.35-60.245-25.045c-16.725-16.725-25.087-36.821-25.087-60.288s8.361-43.563 25.087-60.288c16.7-16.695 36.779-25.045 60.245-25.045zM376.833 620.109h255.999v85.333c0 35.556-12.442 65.778-37.333 90.667-24.887 24.889-55.108 37.333-90.667 37.333-35.554 0-65.775-12.444-90.665-37.333-24.889-24.889-37.333-55.111-37.333-90.667v-85.333z" />
<glyph unicode="&#xe950;" glyph-name="danger" d="M352 64l-224 224v320l224 224h320l224-224v-320l-224-224h-320zM390.4 266.667l121.6 121.6 121.6-121.6 59.733 59.733-121.6 121.6 121.6 121.6-59.733 59.733-121.6-121.6-121.6 121.6-59.733-59.733 121.6-121.6-121.6-121.6 59.733-59.733z" />
<glyph unicode="&#xe951;" glyph-name="schedule" d="M652.8 247.467l59.733 59.733-157.867 157.867v196.267h-85.333v-230.4l183.467-183.467zM512 21.333c-59.021 0-114.489 11.2-166.4 33.6s-97.067 52.8-135.467 91.2c-38.4 38.4-68.8 83.554-91.2 135.467s-33.6 107.379-33.6 166.4c0 59.021 11.2 114.489 33.6 166.4s52.8 97.067 91.2 135.467c38.4 38.4 83.555 68.8 135.467 91.2s107.379 33.6 166.4 33.6c59.021 0 114.487-11.2 166.4-33.6s97.067-52.8 135.467-91.2c38.4-38.4 68.8-83.555 91.2-135.467s33.6-107.379 33.6-166.4c0-59.021-11.2-114.487-33.6-166.4s-52.8-97.067-91.2-135.467c-38.4-38.4-83.554-68.8-135.467-91.2s-107.379-33.6-166.4-33.6z" />
<glyph unicode="&#xe952;" glyph-name="crown" d="M213.325 106.665v85.335h597.335v-85.335h-597.335zM213.325 256l-54.4 342.4c-1.422 0-3.022-0.178-4.8-0.534s-3.378-0.534-4.8-0.534c-17.778 0-32.889 6.222-45.333 18.667s-18.667 27.555-18.667 45.333c0 17.778 6.222 32.889 18.667 45.334s27.555 18.666 45.333 18.666c17.778 0 32.889-6.222 45.334-18.666s18.666-27.556 18.666-45.334c0-4.978-0.533-9.6-1.6-13.866s-2.311-8.178-3.733-11.734l133.333-59.733 133.334 182.399c-7.822 5.689-14.222 13.156-19.2 22.4s-7.466 19.2-7.466 29.867c0 17.778 6.222 32.889 18.666 45.333s27.556 18.667 45.334 18.667c17.78 0 32.889-6.222 45.336-18.667 12.442-12.444 18.662-27.555 18.662-45.333 0-10.667-2.488-20.622-7.465-29.867s-11.377-16.711-19.2-22.4l133.335-182.399 133.33 59.733c-1.418 3.556-2.662 7.466-3.732 11.734-1.065 4.266-1.597 8.889-1.597 13.866 0 17.778 6.221 32.889 18.668 45.334 12.442 12.444 27.551 18.666 45.332 18.666 17.777 0 32.886-6.222 45.332-18.666 12.442-12.445 18.668-27.556 18.668-45.334s-6.226-32.889-18.668-45.333c-12.447-12.445-27.556-18.667-45.332-18.667-1.423 0-3.026 0.178-4.803 0.534s-3.379 0.534-4.797 0.534l-54.4-342.4h-597.335z" />
<glyph unicode="&#xe953;" glyph-name="free-cancellation" d="M706.133 0l-151.467 151.467 59.733 59.733 90.67-90.67 181.333 181.333 59.733-60.797-240.003-241.067zM315.733 234.667l-59.733 59.733 68.267 68.267-68.267 68.267 59.733 59.733 68.267-68.267 68.267 68.267 59.733-59.733-68.267-68.267 68.267-68.267-59.733-59.733-68.267 68.267-68.267-68.267zM213.333 21.333c-23.467 0-43.555 8.357-60.266 25.065-16.712 16.714-25.067 36.801-25.067 60.268v597.333c0 23.467 8.355 43.555 25.067 60.266s36.8 25.067 60.266 25.067h42.667v85.333h85.333v-85.333h341.333v85.333h85.333v-85.333h42.667c23.467 0 43.554-8.356 60.268-25.067 16.708-16.711 25.065-36.8 25.065-60.266v-270.933l-85.333-86.397v186.664h-597.333v-426.667h266.667l84.267-85.333h-350.933z" />
<glyph unicode="&#xe954;" glyph-name="block" d="M512 21.333c-59.022 0-114.489 11.201-166.4 33.599-51.911 22.403-97.067 52.799-135.467 91.199s-68.8 83.558-91.2 135.47c-22.401 51.911-33.6 107.378-33.6 166.4s11.2 114.489 33.6 166.4c22.4 51.911 52.8 97.067 91.2 135.467s83.556 68.8 135.467 91.2c51.911 22.401 107.378 33.6 166.4 33.6s114.489-11.2 166.4-33.6c51.911-22.4 97.070-52.8 135.47-91.2s68.796-83.556 91.199-135.467c22.397-51.911 33.599-107.378 33.599-166.4s-11.201-114.489-33.599-166.4c-22.403-51.911-52.799-97.070-91.199-135.47s-83.558-68.796-135.47-91.199c-51.911-22.397-107.378-33.599-166.4-33.599zM512 106.667c38.4 0 75.378 6.224 110.933 18.665 35.556 12.447 68.267 30.401 98.133 53.868l-477.867 477.867c-23.467-29.867-41.422-62.578-53.867-98.133-12.444-35.556-18.666-72.533-18.666-110.933 0-95.289 33.067-176.003 99.2-242.136 66.133-66.128 146.844-99.197 242.133-99.197zM780.8 238.933c23.467 29.867 41.421 62.578 53.868 98.133 12.442 35.556 18.665 72.533 18.665 110.933 0 95.289-33.070 176-99.197 242.133-66.133 66.133-146.847 99.2-242.136 99.2-38.4 0-75.378-6.223-110.933-18.666-35.556-12.445-68.267-30.4-98.133-53.867l477.867-477.867z" />
<glyph unicode="&#xe955;" glyph-name="sell" horiz-adv-x="975" d="M869.581 356.571l-290.543-290.538c-8.124-8.129-17.267-14.224-27.429-18.286-10.157-4.067-20.314-6.095-30.476-6.095-10.157 0-20.314 2.028-30.476 6.095-10.157 4.062-19.3 10.157-27.427 18.286l-358.603 358.6c-7.45 7.451-13.206 16.087-17.27 25.907s-6.095 20.148-6.095 30.984v291.556c0 22.349 7.958 41.481 23.873 57.397s35.048 23.873 57.397 23.873h291.556c10.836 0 21.333-2.201 31.492-6.603s18.965-10.328 26.411-17.778l357.591-358.602c8.124-8.129 14.053-17.271 17.779-27.429 3.721-10.162 5.583-20.319 5.583-30.476 0-10.162-1.863-20.148-5.583-29.969-3.725-9.821-9.655-18.793-17.779-26.921zM521.133 122.919l290.543 290.543-358.605 359.618h-290.54v-290.54l358.601-359.621zM264.119 610.54c16.932 0 31.323 5.926 43.175 17.778s17.778 26.243 17.778 43.174c0 16.932-5.926 31.323-17.778 43.175s-26.243 17.778-43.175 17.778c-16.931 0-31.323-5.926-43.174-17.778s-17.778-26.243-17.778-43.175c0-16.931 5.926-31.323 17.778-43.174s26.243-17.778 43.174-17.778z" />
<glyph unicode="&#xe956;" glyph-name="bookmark" d="M213.3 64v682.666c0 23.467 8.355 43.556 25.066 60.267s36.8 25.066 60.266 25.066h426.666c23.465 0 43.556-8.355 60.268-25.066s25.068-36.8 25.068-60.267v-682.666l-298.668 128-298.666-128zM298.633 194.135l213.334 91.73 213.332-91.73v552.531h-426.666v-552.531z" />
<glyph unicode="&#xe957;" glyph-name="warning" d="M61.917 46.498l469.335 810.668 469.333-810.668h-938.668zM488.585 302.498h85.333v213.333h-85.333v-213.333zM531.251 174.498c12.087 0 22.229 4.096 30.421 12.288 8.162 8.166 12.245 18.291 12.245 30.379 0 12.092-4.083 22.217-12.245 30.379-8.192 8.192-18.334 12.288-30.421 12.288-12.092 0-22.217-4.096-30.379-12.288-8.192-8.162-12.288-18.287-12.288-30.379 0-12.087 4.096-22.212 12.288-30.379 8.162-8.192 18.287-12.288 30.379-12.288z" />
<glyph unicode="&#xe958;" glyph-name="wifi" d="M270.933 305.067l-89.6 91.733c41.955 41.954 91.207 75.191 147.755 99.712 56.519 24.546 117.491 36.821 182.912 36.821s126.409-12.446 182.955-37.333c56.521-24.887 105.758-58.667 147.712-101.333l-89.6-89.6c-31.287 31.287-67.554 55.821-108.8 73.6s-85.333 26.667-132.267 26.667c-46.933 0-91.022-8.887-132.267-26.667s-77.511-42.313-108.8-73.6zM89.6 486.4l-89.6 89.6c65.422 66.845 141.867 119.111 229.333 156.8s181.689 56.533 282.667 56.533c100.979 0 195.2-18.845 282.667-56.533s163.913-89.955 229.333-156.8l-89.6-89.6c-54.754 54.755-118.217 97.607-190.379 128.555-72.192 30.919-149.534 46.379-232.021 46.379s-159.829-15.459-232.021-46.379c-72.163-30.947-135.623-73.799-190.379-128.555zM512 64l150.4 151.467c-19.2 19.2-41.6 34.317-67.2 45.355-25.6 11.008-53.333 16.512-83.2 16.512s-57.6-5.504-83.2-16.512c-25.6-11.038-48-26.155-67.2-45.355l150.4-151.467z" />
</font>
</defs>
</svg>
